Skip to main content

Was (Not Was) Live at Ram's Head Onstage on 2008-05-03

Audio Preview

etree
Was (Not Was) Live at Ram's Head Onstage on 2008-05-03




Was (Not Was)
May 3, 2008
Ram's Head Onstage
Annapolis MD

Don Was - bass
David Was - flute, harp, vox
Sweet Pea Atkinson - vox
Harry Bowens aka Sir Harry - vox
Donald Ray Mitchell - vox
Randy Jacobs - gtr/vox
Paul "Shilts" Weimar - sax
Jamie Mahoberac - gtr/vox
James Gadson - drums

*** THIS IS A 24-BIT FILESET NOT INTENDED FOR AUDIO CD ***

SOURCE: mbho 603a/ka200n (cardioid, ORTF) > sound devices mp2 > busman t-mod edirol r4 (24/96)
PROCESSING: soundforge 8.0 (tracking, fades) > flac 1.2.0a

01 intro
02 Hello Operator ^
03 Papa Was A Rolling Stone
04 I Blew Up The United States > Sunshine Superfly
05 Where Did Your Heart Go?
06 Your Luck Won't Last
07 From The Head To The Heart
08 Semi-Interesting Week
09 Walk The Dinosaur
10 I Feel Better Than James Brown
11 Tell Me That I'm Dreaming
12 Robot Girl
13 Wheel Me Out
14 Out Come the Freaks
15 Crazy Water
16 11 MPH
17 Knocked Down, Made Small

^ Source is Studio Projects LSD-2 (mid/side) > tmod edirol r4 due to this source overloading


Collection WasNotWas
Band/Artist Was (Not Was)
Venue Ram's Head Onstage
Location Annapolis MD

Source mbho 603a/ka200n (cardioid, ORTF) > sound devices mp2 > busman t-mod edirol r4 (24/96)
Lineage soundforge 8.0 (tracking, fades) > flac 1.2.0a
Taped by Peter W. King
Transferred by Peter W. King

Notes

length expanded size cdr WAVE problems fmt ratio filename
1:33.183 53673524 B cxx -- ---xx flac 0.5280 wasnotwas2008-05-03_mbho_t01.flac
4:06.000 141696038 B cxx -- ---xx flac 0.6044 wasnotwas2008-05-03_mbho_t02.flac
6:15.851 216489980 B cxx -- ---xx flac 0.5866 wasnotwas2008-05-03_mbho_t03.flac
9:08.533 315955244 B cxx -- ---xx flac 0.5811 wasnotwas2008-05-03_mbho_t04.flac
6:51.829 237213740 B cxx -- ---xx flac 0.5611 wasnotwas2008-05-03_mbho_t05.flac
4:29.760 155381804 B cxx -- ---xx flac 0.6011 wasnotwas2008-05-03_mbho_t06.flac
3:34.827 123740204 B cxx -- ---xx flac 0.5016 wasnotwas2008-05-03_mbho_t07.flac
7:28.853 258539564 B cxx -- ---xx flac 0.5689 wasnotwas2008-05-03_mbho_t08.flac
6:51.080 236782124 B cxx -- ---xx flac 0.6006 wasnotwas2008-05-03_mbho_t09.flac
5:05.448 175938092 B cxx -- ---xx flac 0.5709 wasnotwas2008-05-03_mbho_t10.flac
2:35.681 89672282 B cxx -- ---xx flac 0.6018 wasnotwas2008-05-03_mbho_t11.flac
3:41.611 127647788 B cxx -- ---xx flac 0.6036 wasnotwas2008-05-03_mbho_t12.flac
3:00.352 103882796 B cxx -- ---xx flac 0.6021 wasnotwas2008-05-03_mbho_t13.flac
4:04.794 141001214 B cxx -- ---xx flac 0.5844 wasnotwas2008-05-03_mbho_t14.flac
4:21.291 150503468 B cxx -- ---xx flac 0.5901 wasnotwas2008-05-03_mbho_t15.flac
4:04.661 140924972 B cxx -- ---xx flac 0.6089 wasnotwas2008-05-03_mbho_t16.flac
3:59.317 137846828 B cxx -- ---xx flac 0.6198 wasnotwas2008-05-03_mbho_t17.flac
81:13.071 2806889662 B 0.5839 (17 files)

comment
Reviews

There are no reviews yet. Be the first one to write a review.
DOWNLOAD OPTIONS
In Collection
Was (Not Was)
In Collection
Live Music Archive
Uploaded by
peterwking
on 5/9/2008
Views
334
Favorites
1
SIMILAR ITEMS (based on metadata)
Was (Not Was)
by Was (Not Was)
etree
eye 229
favorite 1
comment 0
Source: studio projects LSDII (mid/side) > busman t-mod edirol r4 (24/96)
Was (Not Was)
by Was (Not Was)
etree
eye 2,267
favorite 2
comment 0
Source: mbho 603a/ka200n (cardioid, ORTF) > sound devices mp2 > busman t-mod edirol r4 (24/96)
Was (Not Was)
by Was (Not Was)
etree
eye 4,568
favorite 2
comment 1
favoritefavoritefavoritefavorite ( 1 reviews )
Source: schoeps mk4v > vms02ib > sony tcd-d8 (16/48)
Was (Not Was)
by Was (Not Was)
etree
eye 9,247
favorite 5
comment 2
favoritefavoritefavoritefavoritefavorite ( 2 reviews )
Source: schoeps mk4v > vms02ib > modSBM > jb3 (16/48)
Was (Not Was)
by Was (Not Was)
etree
eye 1,443
favorite 1
comment 0
Source: ADK A51s (PAS x/y) > Oade T+mod UA5 > JB3
Was (Not Was)
by Was (Not Was)
etree
eye 9,856
favorite 1
comment 0
Source: AUD
Bonerama
by Bonerama
etree
eye 672
favorite 1
comment 0
Source: mbho 603a/ka200n (cardioid, ORTF) > sound devices mp2 > t-mod edirol r4
Bonerama
by Bonerama
etree
eye 623
favorite 1
comment 0
Source: studio projects LSD2 (blumlein) > busman t-mod edirol r4 (24/96)
Oteil and the Peacemakers
by Oteil and the Peacemakers
etree
eye 120
favorite 1
comment 0
Source: schoeps mk4v (ORTF) > vms02ib > busman t-mod edirol r4 (24/96)
Bonerama
by Bonerama
etree
eye 1,534
favorite 1
comment 0
Source: studio projects LSD2 (blumlein) > busman t-mod edirol r4 (24/96)